分类:
城市建筑(342) 商务办公(118) 人物生活(582) 医疗美容(48) 房地产类(58) 食品美食餐饮(289) 政治经济(44) 人文地理(120) 自然风光(679) 旅游景点(200) 农业农田(176) 城市企业宣传(352) 日月星辰(139) 宇宙星空(85) 云雨水火(239) 交通车流人流(212) 体育运动(177) 动物系列(234) 休闲娱乐(149) 植物鲜花(366) 科技金融生产(237) 海周边与生物(120) 昆虫系列(60) 综合实拍(462)
首页 > 实拍素材> 食品美食餐饮> 索尼HDR演示片4K高清视频 蔬菜水果食材食物

素材详情

索尼HDR演示片4K高清视频 蔬菜水果食材食物

专题片背景音乐  http://www.ybhuzhu.com/yinleyinxiao/3004.html

宣传片片头  http://www.ybhuzhu.com/ae/8607.html



下载说明:

(大小 726MB)

版权信息:本素材仅供参考与学习,版权归原作者所有,严禁商用!

资源将使用多个网盘保证下载有效,点击多个网盘地址不会重复扣金币。全部网盘失效请 如无特殊说明,本站压缩包默认密码均为 www.ybhuzhu.com

此资源需要 23 个金币下载,点击 金币充值升级vip 免金币任意下载! 下载后请勿转发,否则封号不退款

索尼HDR演示片4K高清视频 蔬菜水果食材食物

0 0

General
Complete name : SONY.BRAVIA.OLED.4K.HDR.DEMO_Food .Fizzle.mp4
Format : MPEG-4
Format profile : Base Media / Version 2
Codec ID : mp42 (mp42/iso4)
File size : 726 MiB
Duration : 1 min 22 s
Overall bit rate : 74.2 Mbps
Encoded date : UTC 2017-02-27 02:06:58
Tagged date : UTC 2017-02-27 02:06:58

Video
ID : 1
Format : HEVC
Format/Info : High Efficiency Video Coding
Format profile : Main [email protected]@High
Codec ID : hvc1
Codec ID/Info : High Efficiency Video Coding
Duration : 1 min 22 s
Bit rate : 74.0 Mbps
Width : 3840 pixels
Height : 2160 pixels
Display aspect ratio : 16:9
Frame rate mode : Constant
Frame rate : 59.940 (60000/1001) FPS
Color space : YUV
Chroma subsampling : 4:2:0 (Type 2)
Bit depth : 10 bits
Bits/(Pixel*Frame) : 0.149
Stream size : 725 MiB (100%)
Encoded date : UTC 2017-02-27 02:06:58
Tagged date : UTC 2017-02-27 02:06:58
Color range : Limited
Color primaries : BT.2020
Transfer characteristics : SMPTE ST 2084
Matrix coefficients : BT.2020 non-constant
Mastering display color primar : R: x=1.000000 y=1.000000, G: x=1.000000 y=1.000000, B: x=1.000000 y=1.000000, White point: x=1.000000 y=1.000000
Mastering display luminance : min: 0.1000 cd/m2, max: 0.5000 cd/m2

Audio
ID : 2
Format : AAC
Format/Info : Advanced Audio Codec
Format profile : LC
Codec ID : 40
Duration : 1 min 22 s
Bit rate mode : Constant
Bit rate : 192 kbps
Channel(s) : 2 channels
Channel positions : Front: L R
Sampling rate : 48.0 kHz
Frame rate : 46.875 FPS (1024 SPF)
Compression mode : Lossy
Stream size : 1.88 MiB (0%)
Language : English
Encoded date : UTC 2017-02-27 02:06:58
Tagged date : UTC 2017-02-27 02:06:58
Demo Ultra HD & HDR (HDR10)by Sony(for Sony OLED A1 Demo)
HDR ! So your TV has to be able to play this format ! 
OLED 
4K HDR电视上观看才能体验最佳效果!



喜欢 "索尼HDR演示片4K高清视频 蔬菜水果食材食物" 的人同时也喜欢...

客服中心
客服工作时间

周一至周五

8:30 - 17:00

周六

8:30 - 16:00

客服团队
QQ客服
微信客服
微信公众号
联系电话

15653358247