分类:
城市建筑(342) 商务办公(118) 人物生活(582) 医疗美容(48) 房地产类(58) 食品美食餐饮(289) 政治经济(44) 人文地理(120) 自然风光(679) 旅游景点(200) 农业农田(176) 城市企业宣传(352) 日月星辰(139) 宇宙星空(85) 云雨水火(239) 交通车流人流(212) 体育运动(177) 动物系列(234) 休闲娱乐(149) 植物鲜花(366) 科技金融生产(237) 海周边与生物(120) 昆虫系列(60) 综合实拍(462)
首页 > 实拍素材> 体育运动> 街头花式篮球球队比赛4K高清视频

素材详情


街头花式篮球球队比赛4K高清视频


专题片背景音乐  http://www.ybhuzhu.com/yinleyinxiao/3004.html

宣传片片头  http://www.ybhuzhu.com/ae/8607.html



下载说明:

(大小 457MB)

版权信息:本素材仅供参考与学习,版权归原作者所有,严禁商用!

资源将使用多个网盘保证下载有效,点击多个网盘地址不会重复扣金币。全部网盘失效请 如无特殊说明,本站压缩包默认密码均为 www.ybhuzhu.com

此资源需要 20 个金币下载,点击 金币充值升级vip 免金币任意下载! 下载后请勿转发,否则封号不退款

街头花式篮球球队比赛4K高清视频

0 0


General

ID                             : 1014 (0x3F6)

ShutUpAndPlay.Berlin.2014.2160p.HDTV.HEVC-4KjTV.ts

Format                         : MPEG-TS

File size                      : 462 MiB

Duration                       : 3mn 42s

Overall bit rate mode          : Variable

Overall bit rate               : 17.4 Mbps


Video

ID                             : 255 (0xFF)

Menu ID                        : 10202 (0x27DA)

Format                         : HEVC/h265

Format/Info                    : High Efficiency Video Coding

Format profile                 : Main [email protected]

Codec ID                       : 36

Duration                       : 3mn 42s

Bit rate                       : 16.5 Mbps

Width                          : 3 840 pixels

Height                         : 2 160 pixels

Display aspect ratio           : 16:9

Frame rate                     : 50.000 fps

Color space                    : YUV

Chroma subsampling             : 4:2:0

Bit depth                      : 10 bits

Bits/(Pixel*Frame)             : 0.040

Stream size                    : 438 MiB (95%)


Audio

ID                             : 256 (0x100)

Menu ID                        : 10202 (0x27DA)

Format                         : AAC

Format/Info                    : Advanced Audio Codec

Format version                 : Version 4

Format profile                 : HE-AACv2 / HE-AAC / LC

Muxing mode                    : ADTS

Codec ID                       : 15

Duration                       : 3mn 42s

Bit rate mode                  : Variable

Bit rate                       : 62.8 Kbps

Channel(s)                     : 2 channels / 1 channel / 1 channel

Channel positions              : Front: L R / Front: C / Front: C

Sampling rate                  : 48.0 KHz / 48.0 KHz / 24.0 KHz

Compression mode               : Lossy

Delay relative to video        : -147ms

Stream size                    : 1.67 MiB (0%)

Language                       : English


喜欢 "街头花式篮球球队比赛4K高清视频" 的人同时也喜欢...

客服中心
客服工作时间

周一至周五

8:30 - 17:00

周六

8:30 - 16:00

客服团队
QQ客服
微信客服
微信公众号
联系电话

15653358247